Добро пожаловать на сайт видео анонсов VideoAnons.ru! У нас Вы можете не только скачать фильмы бесплатно, без регистрации, но и прочитать о новинках кино в разделе видео анонсов. Ознакомиться с биографией и фильмографией известных киноактеров российского или зарубежного кинематографа. Представлены только лучшие фильмы, сериалы, мультфильмы, а также популярные телепередачи. Видео самых популярных жанров, таких как комедии, боевики, фантастика, ужасы и др.
 
 
 
Навигация

FAQ


Счетчики

Партнеры
 
John Wick (Release October 24, 2014) Trailer скачать бесплатно
 Добавил ava в категорию: Фильмы » Трейлеры (21 сентября 2014)
 (голосов: 0)
John Wick

John Wick (Release October 24, 2014) Trailer
MOV | AVC | 1920x816, 9519 kbps | English: AAC, 2ch, 128 kbps | 02:28 mins | 170 MB
Genre: Action | Thriller

John Wick is an upcoming American action thriller film directed by Chad Stahelski and written by Derek Kolstad. The film stars Keanu Reeves, Adrianne Palicki, Bridget Moynahan, Alfie Allen, Ian McShane and Willem Dafoe.


Plot: Retired hit-man John Wick hits the streets of NYC in search of the gangsters who robbed him of his reason for living.
--from wikipedia

.....IMDb





MediaInfo
General
File name : John_Wick_Trailer.mov
Format : MPEG-4
Format profile : QuickTime
Codec ID : qt
File size : 171 MiB
Duration : 2mn 28s
Overall bit rate : 9 649 Kbps
Encoded date : UTC 2014-09-15 21:58:23
Tagged date : UTC 2014-09-15 21:58:28
Writing library : Apple QuickTime

Video
ID : 1
Format : AVC
Format/Info : Advanced Video Codec
Format profile : Main@L4.0
Format settings, CABAC : No
Format settings, ReFrames : 2 frames
Codec ID : avc1
Codec ID/Info : Advanced Video Coding
Duration : 2mn 28s
Bit rate : 9 519 Kbps
Width : 1 920 pixels
Height : 816 pixels
Display aspect ratio : 2.35:1
Frame rate mode : Constant
Frame rate : 23.976 fps
Color space : YUV
Chroma subsampling : 4:2:0
Bit depth : 8 bits
Scan type : Progressive
Bits/(Pixel*Frame) : 0.253
Stream size : 168 MiB (99%)
Language : English

Audio
ID : 3
Format : AAC
Format/Info : Advanced Audio Codec
Format profile : LC
Codec ID : 40
Duration : 2mn 28s
Source duration : 2mn 28s
Bit rate mode : Constant
Bit rate : 128 Kbps
Channel(s) : 2 channels
Channel positions : Front: L R
Sampling rate : 44.1 KHz
Compression mode : Lossy
Stream size : 2.20 MiB (1%)
Source stream size : 2.20 MiB (1%)
Language : English


Download:

Uploaded



Скачать фильм в другом качестве / Смотреть фильм онлайн

Как скачивать файлы? Жми сюда

Прокомментировало: 0


Информация
Посетители, находящиеся в группе Гости, не могут оставлять комментарии в данной новости.

 
Топ 10 самых-самых!

Последние видео анонсы


Новости кино


Партнеры
 
© 2008 VideoAnons.ru
Email: videoanons[@]mail.ru
Сайт www.Videoanons.ru является самообновляемым порталом, информацию на который добавляют пользователи, согласные с тем, что они не нарушают авторских прав и несут всю ответственность за добавленный материал. Размещение любой информации, нарушающей авторское право, будет незамедлительно удалено.